Seja Bem Vindo...

(( Steven Ryan: ))
Administrador, Uploader, Ripador & Arquivista.
(Edições de Áudio e Vídeo em Alta Definição HD)

Lançamentos Exclusivos !

Contatos:

*Email:
segundaguerradownloads@yahoo.com.br

*Facebook:

http://www.facebook.com/SegundaGuerraDownloads
(Divulgue entre seus amigos)
(Curta e Receba Atualizações de Novas Postagens)

Compra de Documentários em DVD-R

Acesse:
http://segundaguerradocsdvd.blogspot.com.br

Disponibilizando algumas das minhas Coleções para arrecadar e pagar Servidores, preciso enviar sempre novos links para o Blog.
O conhecimento tem que ser espalhado gratuitamente, e é isso que meu Blog fez e sempre vai fazer, mas para vocês não ficarem sem novas postagens eu estarei contando com a ajuda de todos, todo trabalho que faço aqui é por extremamente paixão de compartilhar cultura, conhecimento e amizade com todos, ainda tenho muita coisa para postar, só me limito muito porque aqui onde estou agora a velocidade de net é bem ruim, consegui uma melhor velocidade por 2 meses atrás e recuperei muitos Documentários que estavam com os links deletados, e upei outros novos que eu editei exclusivamente para o Blog em HD, por exemplo Heróis do Dia D (Dual Áudio) HDTV 720p, O Naufrágio do Bismark (Dual Áudio) 720p, Dia D: Homens e Máquinas (HDTV + HDTV 720p) entre outros.

Para pessoas que tem dificuldade de baixar e quer fazer uma seleção de Documentários e comprar, eu posso fazer e enviar para qualquer parte do Brasil em DVD, desta forma eu ajudo vocês e vocês me ajudam a manter este Blog sempre vivo.
Este Blog sempre vai manter todos os links gratuitamente como sempre foi, para qualquer pessoa baixar e assistir a hora que for, a compra de Documentários é no meu outro Blog, aqui >> http://segundaguerradocsdvd.blogspot.com.br para quem tem interesse em comprar sem precisar estar baixando nada, ótimo para quem trabalha o dia inteiro, já tive clientes sem tempo, e essa é uma solução rápida de adquirir, também tem a opção HD Externo para Colecionadores, desta forma pode-se enviar 500gb, 1TB ou até mais de conteúdo Militar exclusivo, boa parte editado por mim Steven Ryan, ao longo desses anos, digno de Colecionador.

Comprar:
http://segundaguerradocsdvd.blogspot.com.br
Para comprar inúmeras coleções, pode fazer pedidos, afinal tenho muitas séries e Documentários Militares aqui em casa que não se encontra neste Blog, possa ser que eu tenha a série que você procura.
Observação:
Toda a escrita, formato do blog e edição final de todo meu Blog é de minha autoria, Steven Ryan, se você ver ela em outros Blogs, Sites, Facebooks e lugares, pode ter certeza que alguém copiou aqui, peço que por gentileza me avisem pelo meu Facebook, obrigado.

''Faça o Blog crescer ainda mais, sua ajuda é de grande importância para o aprendizado de todos.''

Trinity e Além - O Filme da Bomba Atômica (1080p)

Sinopse:
"Trinity and Beyond" é uma produção fascinante, um documentário que vai apresentar a história do desenvolvimento e produção das armas nucleares entre os anos de 1945 e 1963.
Narrado por William Shatner, "Trinity & Beyond" trás características extremamentes raras, arquivos secretos dos governos e surpreendentes filmagens de bombas nucleares, trás testes efetuados pela Grã-Bretanha e China, bem como a maior explosão atômica.

Opção 1:

Audio:
Inglês
Legenda / Subtitle:
Português-br
Obs: Legenda testada e sincronizada para está versão 1.

________________________________________

Opção 2:

Audio 1:
Inglês
 Audio 2:
Alemão

Legenda / Subtitle:
Português-br
Obs: É a mesma legenda da opção 1, faça o teste na opção 2 que poderás funcionar.

Titulo Original: Trinity & Beyond - The Atomic Bomb Movie
Titulo Traduzido: Trinity e Além - O Filme da Bomba Atômica
Ano: 1995
Gênero: Documentáro


Trailer:



Opção 01:

Megashares:

Observação: 
Baixe este arquivo via JDownloader, é o seguinte, se você tentar baixar via Firefox ou Explorer o Download pode quebrar, eu baixei via JDownloader e consegui baixar todo, quando você tentar baixar no JDownloader o link pode aparecer que está quebrado em vermelho dizendo que os Slots estão ocupados, basta você dar o segundo botão do mouse sobre o link e ir em Desativar, tente no dia seguinte ou horas depois, vá em ativar link assim os Slots pode abrir e o Download começar, foi assim que ocorreu aqui, conforme você ir baixando possa ser que o link quebre novamente mas fique tranquilo que ele vai por limite de tempo e depois que terminar este limite ele começa a baixar novamente de onde parou, ele não vai começar tudo de novo e sim da onde ele parou de baixar pela última vez, como fosse um Torrent, basta ter paciência quando ele barrar o limite, aqui ele me barrou 1 hora no máximo e depois começou novamente, mas pode variar de um computador para outro.

Especificações:

Geral:
      
Nome Completo: Trinity and Beyond - The Atomic Bomb Movie 1995 1080p BluRay.mkv
      
Formato: Matroska
     
Tamanho do arquivo: 6,56 GB
      
Duração: 1h 33mn
      
Taxa de Bits Total: 10 000 Kbps

Vídeo:
      
Formato: AVC
      
Formato / Informações: Advanced Video Codec
  
Duração: 1h 33mn
      
Taxa de bits: 552 Kbps
      
Largura: 1 920 pixels
      
Altura: 1 080 pixels
      
Proporção da imagem: 16:9
      
Taxa de quadros: 23.976 fps
      
Tipo de digitalização: Progressive
      
Tamanho da Faixa: 6,13 GiB (94%)

Áudio:
      
Formato: AC-3
      
Formato / Informações: Audio Coding 3
      
Codec ID: A_AC3
      
Duração: 1h 33mn
      
Modo de taxa de bits: Constante
      
Taxa de bits: 448 Kbps
      
Canal (s): 6 canais
      
Posições de canal: Front: L C R, L Side: R, LFE
      
Taxa de amostragem: 48,0 KHz
      
A profundidade de bits: 16 bits
      
Stream size: 301 MiB (4%)
      
Idioma: Inglês

Créditos: Não consta

Legenda / Subtitle:
Português-br
 Aqui / Here
Senha / Password: stevendocs
 Créditos da Legenda: Tradução Flávio Cardoso
________________________________________________________

Opção 02:
Netload.in:

 http://netload.in/dateiv8bnnwmCJS.htm
http://netload.in/dateiEMnkMgNiju.htm
http://netload.in/dateiS8v3RwTktz.htm
http://netload.in/dateiDLMJgan1k8.htm
http://netload.in/datei7ZYGwTDBPP.htm
http://netload.in/dateiqSqla5W6v3.htm
http://netload.in/dateiivhEDoyOjS.htm
http://netload.in/dateildEwhawCGn.htm
http://netload.in/datei16DLv7pjQQ.htm
http://netload.in/dateirjyOkyzEHi.htm
http://netload.in/datei5kMmQ1niN6.htm
http://netload.in/dateidijsWCqPGS.htm
http://netload.in/dateinzxIVjIxTV.htm
http://netload.in/dateizcVRjQcoen.htm
http://netload.in/datei5uV78IDAob.htm
http://netload.in/dateipNIB0zwKa8.htm
http://netload.in/dateib6zpKIAro7.htm
http://netload.in/dateiQAn4Mxc7Du.htm
http://netload.in/dateiZULAQe9oFj.htm
http://netload.in/dateiFGpbwR4hh7.htm
http://netload.in/dateiet21YuJQg1.htm
http://netload.in/dateiTeJW53sarA.htm
http://netload.in/dateiHYgFtzXBeq.htm
http://netload.in/dateiodJaWnT3Pp.htm
http://netload.in/dateixwxkYCpSRg.htm
http://netload.in/dateiMy9HMsHS5o.htm
http://netload.in/dateiahxsbG8Ipi.htm
http://netload.in/dateiSKoSeEMGDv.htm
http://netload.in/datei1NZS0y2hHR.htm
http://netload.in/dateilHuu59sM3h.htm
http://netload.in/dateiZbadHVhAmy.htm
http://netload.in/datei6LmUSTJvZe.htm
http://netload.in/dateixdasVBx82E.htm
http://netload.in/datei5AVT69EzMQ.htm
http://netload.in/dateiM5s7K9Udp1.htm
http://netload.in/dateig8SUvwpAFb.htm
http://netload.in/dateiWcXptYmqUG.htm
http://netload.in/dateituRzBeYKsT.htm
http://netload.in/dateiUc08F4srvQ.htm
http://netload.in/dateiLnpA27hGqR.htm
http://netload.in/dateivH4yif04b6.htm
http://netload.in/dateiFL0ifpEwgA.htm
http://netload.in/dateiSl6DhEZ1eZ.htm
http://netload.in/dateiR5wJ1WxLHw.htm
http://netload.in/dateiJSiO27orTl.htm
http://netload.in/dateiIF14UVZgw4.htm
http://netload.in/dateiLPNWgSHOgq.htm
http://netload.in/dateiROdRegyG93.htm
http://netload.in/dateiXboR8b8kp1.htm
http://netload.in/dateipEnRf78wsi.htm
http://netload.in/datei4ann8Eiz6G.htm
http://netload.in/dateipdI1U1SnQa.htm
http://netload.in/dateisfwCXAfY5V.htm
http://netload.in/dateiU27YwSomyi.htm
http://netload.in/datei5YRBnV2zgI.htm
http://netload.in/dateiR2ToIhbhO7.htm
http://netload.in/dateir1Um8vBBXr.htm
http://netload.in/dateiSoPEwfA8l7.htm
http://netload.in/datei2VCXZwZAJw.htm
http://netload.in/dateia55Plj7jpU.htm
http://netload.in/datei4Q8r8sBIVJ.htm
http://netload.in/dateixM4iDHexaF.htm
http://netload.in/datei7MwWERlJmD.htm
http://netload.in/dateiKOWkByYjHN.htm
http://netload.in/dateiYrhxXHyVAl.htm
http://netload.in/datei7bIENyFfzg.htm
http://netload.in/dateiNMalD9lV2k.htm
http://netload.in/datei672UpW1xKD.htm
http://netload.in/dateizoksnhUYJ9.htm
http://netload.in/dateiSab6AGMWTi.htm
http://netload.in/dateigyXvgRyrNE.htm
http://netload.in/dateiVfzWqh1fk0.htm
http://netload.in/dateive0TVHrjmA.htm
http://netload.in/dateivysrE4SjII.htm

Especificações:

Geral:
Nome Completo: Trinity.And.Beyond.1995.German.AC3D.DL.1080p.BluRay.x264-msd.mkv
Formato: Matroska
Tamanho do arquivo: 6,68 GB
Duração: 1h 33min
Taxa de Bits Total: 10,2 Mbps

Vídeo:
Formato: AVC (THX SSF)
Formato / Informações: Advanced Video Codec
Duração: 1h 33min
Taxa de bits: 9552 Kbps
Largura: 1 920 pixels
Altura: 1 080 pixels
Rácio de aspecto: 16:9
Taxa de quadros: 23.976 fps
Tipo de digitalização: Progressive
Tamanho da Faixa: 6,13 GiB (92%)

Áudio 1:
Formato: AC-3
Formato / Informações: Audio Coding 3
Codec ID: A_AC3
Duração: 1h 33min
Modo de taxa de bits: Constante
Taxa de bits: 448 Kbps
Canais: 6 canais
Posições do canal: Front: LCR, Lado: LR, LFE
Taxa de amostragem: 48,0 KHz
A profundidade de bits / String: 16 bits
Stream size: 301 MiB (4%)
Idioma: Inglês

Áudio 2:
Formato: AC-3
Formato / Informações: Audio Coding 3
Codec ID: A_AC3
Duração: 1h 33min
Modo de taxa de bits: Constante
Taxa de bits: 192 Kbps
Canais: Canais 2
Posições de canal: Front: L R
Taxa de amostragem: 48,0 KHz
A profundidade de bits / String: 16 bits
Stream size: 129 MiB (2%)
Idioma: Alemão

Créditos: msd

Observação:
 Está versão eu não baixei, mas creio que a legenda da outra versão possa dar para este, para saber se dá ou não, baixe apenas as duas primeiras partes, começe a fazer a extração..., no meio da extração, ou seja, antes dela terminar você clica no arquivo com os Players KMPlayer ou SMPlayer para pre-visualizar o arquivo, no caso renomeie a legenda igual a do arquivo, assim vc pode ver um pequeno pedaço do arquivo sem baixar todo, lembrando isso só vai funcionar se você clicar no video extraido no meio da extração, claro que depois vai pedir a terceira parte e as partes restantes para completar a extração, mas lembrando que é apenas uma pre-visualização, após você ver o resultado você cancela o pedido da parte 3 do Winrar e veja se não ficou o pedaço fora, se ficou exclua ele e continua a baixar os arquivos restantes, isso é uma dica assim você poderás fazer com outros arquivos e não se preocupe em baixar todos os links para depois ver se dá ou não com a legenda, assim você economiza tempo e não se arrisca em baixar enormes arquivos sem saber.

5 comentários:

  1. Chefe,

    Vc esqueceu de disponibilizar a senha

    ResponderExcluir
    Respostas
    1. Olá Diego, Seja Bem Vindo ao Blog, amigo eu esqueci de colocar a senha mesmo, obrigado por avizar, já arrumei.

      Abraço !

      Excluir
  2. Steven, é possível você upar a parte 26 do Netload?

    Essa parte está com problema e só falta ela pra mim.

    ResponderExcluir
    Respostas
    1. Gilberto, como você viu os créditos não são meus, veja >> Créditos: msd , ou seja, não fui eu que upei o arquivo, infelizmente não posso te ajudar, eu baixei este Documentário pelo Megashares, testei aqui agora todos os links do Netload e está off apenas o 26 mesmo, o resto todos estão online, mas é claro, não vai dar para baixar e concluir a extração pq vai dar erro, o link do Megashares testei agora e está online, baixa ele pelo Software Mipony v2.0.4 , se o link quebrar é só esperar um pouco e clicar em Stop e Play no link que ele continua de onde parou. Baixei todo o Documentário com perfeição.

      Obs: Nunca começa a baixar algo sem testar antes se estão Online ou não os links, para isso usa o Software acima que te passei, com ele você pode ver se está online todos os links antes de baixar.

      Abraço.

      Excluir